Home :: Artists :: About :: FAQ :: Forums :: Links :: Shop :: Contact
Home
Artists
  Alex Hall
  Andrew Kelly
  Benz & MD
  Burufunk
  Deepsky
  Digital Witchcraft
  Grayarea
  Hybrid
  James Warren
  Jason Dunne
  KiloWatts
  Micah
  Nick Lewis
  Noel Sanger
  NuBreed
  Shiloh
  Stefan Weise
  Trafik
  V-Sag
  Way Out West
Subscriptions
Mailing Lists
About
FAQ
Forums
Links
Shop
Pictures
Contact

Search

Get Notified
Enter your email and we'll notify you when new sets are added!


Subscribers,
log in now.

More info...

Hybridized on Twitter hybridized.org XML RSS Feeds Hybridized RSS

Best viewed with
Get Firefox!
Artists > Hybrid
Hybrid - Sinning in LA Guest Mix

Date: 2010-03-30
Venue: Sinning in LA
Source: Sinning in LA
Info:
PERFORMER "Hybrid"
TITLE "Sinning in LA Guest Mix (2010-03-30) Part 1"
FILE "01 - Hybrid - Sinning in LA Guest Mix (2010-03-30) Part 1.mp3" MP3
  TRACK 01 AUDIO
    TITLE "This Is What It Means (Rewinded Edit)"
    PERFORMER "Hybrid"
    INDEX 01 00:00:00
  TRACK 02 AUDIO
    TITLE "Disappear Here (Armchair Mix)"
    PERFORMER "Hybrid"
    INDEX 01 01:22:59
  TRACK 03 AUDIO
    TITLE "Snyper (Transmigration Edit)"
    PERFORMER "Hybrid"
    INDEX 01 06:58:61
  TRACK 04 AUDIO
    TITLE "True To Form (Acoustic Instrumental)"
    PERFORMER "Hybrid"
    INDEX 01 10:18:36
  TRACK 05 AUDIO
    TITLE "True To Form (Soundtrack Edit)"
    PERFORMER "Hybrid"
    INDEX 01 13:22:00
  TRACK 06 AUDIO
    TITLE "Evacuating London (Hybrid's Beatless Mix)"
    PERFORMER "Harry Gregson-Williams"
    INDEX 01 14:45:62
  TRACK 07 AUDIO
    TITLE "Just For Today (Hybrid's Beatless Mix)"
    PERFORMER "Hybrid"
    INDEX 01 20:39:02
  TRACK 08 AUDIO
    TITLE "Altitude (Red Square Reprise)"
    PERFORMER "Hybrid"
    INDEX 01 27:13:36
Download this cue sheet

This area is a Wiki which means anyone may edit the cue sheet for this file. Thanks for contributing! All activity is logged so vandalizing the site serves no purpose.

When modifying cue sheets, please adhere to the cue sheet standard.

Revision history


Your username:
Comment about your changes:
Image verification:


Latest Posts
View latest post 2016 album Release schedule (176 Replies) - Marksl8r
View latest post Jhozpin - DEEPTECH AUG16 (0 Replies) - Jhozpin
View latest post Arno Cost feat. Eric Lumiere – Again (Remixes) [OUT TOMORROW] (0 Replies) - KrisA
View latest post Moodblanc - Good Things In Life - BlueAzure Remix (FREE DOWNLOAD) (0 Replies) - BlueAzure
View latest post :: DEEP HOUSE :: [DT023] Alex Justicia - Pandora (0 Replies) - Downtech
View latest post Alex Klingle - Colors Back [OUT TOMORROW] (0 Replies) - KrisA
View latest post Manse feat. Cornelia Jakobs – We Come Alive [OUT TOMORROW] (0 Replies) - KrisA
View latest post Tritonal & Jenaux feat. Adam Lambert - Broken [OUT NOW] (0 Replies) - KrisA
View latest post 8.20.16 [LA] Undercurrent presents PERSPECTIVES w/ Quivver & Darin Epsilon (0 Replies) - Perspectives
View latest post Dirty Beats Done Dirt Cheap .12 (5 Replies) - c-Row
View latest post Brendan Clay - Live at S*A*S*H (7th August, 2016) (0 Replies) - brendanClay
View latest post BRKLYN feat. Mariah McManus – ‘Can’t Get Enough’ (Remixes) [OUT NOW] (0 Replies) - KrisA
View latest post Stargliders- The Red Nebula [OUT TOMORROW] (0 Replies) - KrisA
View latest post Please don't go away Hybridized (12 Replies) - DrQuack02
View latest post Late night ambient (0 Replies) - holden

Today on Proton
[ONDEMAND]My Favourite Freaks with Rhadow

Merchandise
hybridized.org Merchandise!
Get cool hybridized.org shirts, hoodies, hats, and more!

Powered by Catalyst Perl Web Framework

hybridized.org is © 2003-2006 by Andy Grundman.
All music is copyrighted by their respective artists. We believe all sets may be publicly distributed, however if you'd like your set removed, please contact us.
Theme by aallixSilver © 2002 aallix.com. All rights reserved. Logo thanks to Martin Wharton.
Privacy Policy | Site Admin