Home :: Artists :: About :: FAQ :: Forums :: Links :: Shop :: Contact
Home
Artists
  Alex Hall
  Andrew Kelly
  Benz & MD
  Burufunk
  Deepsky
  Digital Witchcraft
  Grayarea
  Hybrid
  James Warren
  Jason Dunne
  KiloWatts
  Micah
  Nick Lewis
  Noel Sanger
  NuBreed
  Shiloh
  Stefan Weise
  Trafik
  V-Sag
  Way Out West
Subscriptions
Mailing Lists
About
FAQ
Forums
Links
Shop
Pictures
Contact

Search

Get Notified
Enter your email and we'll notify you when new sets are added!


Subscribers,
log in now.

More info...

Hybridized on Twitter hybridized.org XML RSS Feeds Hybridized RSS

Best viewed with
Get Firefox!
Artists > James Warren
James Warren - Vapour Trail

Date: 2009-07-07
Venue: studio
Source: Encoded by James.
Info:
PERFORMER "James Warren"
TITLE "Vapour Trail (2009-07-07)"
FILE "James Warren - Vapour Trail (2009-07-07).mp3" MP3
  TRACK 01 AUDIO
    TITLE "Alycon H"
    PERFORMER "James Warren"
    INDEX 01 00:00:00
  TRACK 02 AUDIO
    TITLE "Halcyon (Tom Middleton Re-Model)"
    PERFORMER "Orbital"
    INDEX 01 03:02:60
  TRACK 03 AUDIO
    TITLE "Reckoner (James Zabiela's Tweezers on a Towel Rail Remix)"
    PERFORMER "Radiohead"
    INDEX 01 09:20:15
  TRACK 04 AUDIO
    TITLE "Lamur (Henry Saiz Remix)"
    PERFORMER "Guy J"
    INDEX 01 17:28:70
  TRACK 05 AUDIO
    TITLE "9"
    PERFORMER "Komytea"
    INDEX 01 26:34:68
  TRACK 06 AUDIO
    TITLE "Trans Am"
    PERFORMER "Paul Keeley"
    INDEX 01 31:52:30
  TRACK 07 AUDIO
    TITLE "Jetstream (Sasha Remix)"
    PERFORMER "Doves"
    INDEX 01 38:16:57
  TRACK 08 AUDIO
    TITLE "Rush (Original Mix)"
    PERFORMER "Ee-Sma"
    INDEX 01 45:44:50
  TRACK 09 AUDIO
    TITLE "Peach (Original Mix)"
    PERFORMER "Lanui"
    INDEX 01 50:47:53
  TRACK 10 AUDIO
    TITLE "Lilith (Original Hard Kick Mix)"
    PERFORMER "Gai Barone"
    INDEX 01 57:21:56
  TRACK 11 AUDIO
    TITLE "Human Movement (Harry Brown Remix)"
    PERFORMER "Ben Coda"
    INDEX 01 65:48:60
  TRACK 12 AUDIO
    TITLE "Loveshine (Jody Wisternoff Remix)"
    PERFORMER "Dana Bergquist & Peder G"
    INDEX 01 71:44:60
  TRACK 13 AUDIO
    TITLE "Pianoshine"
    PERFORMER "James Warren"
    INDEX 01 77:30:10
Download this cue sheet

This area is a Wiki which means anyone may edit the cue sheet for this file. Thanks for contributing! All activity is logged so vandalizing the site serves no purpose.

When modifying cue sheets, please adhere to the cue sheet standard.

Revision history


Your username:
Comment about your changes:
Image verification:


Latest Posts
View latest post Brendan Clay - Live at Apollo Arcade, Vinyl Only (11th March, 2017) (0 Replies) - brendanClay
View latest post WOW in Denver 3/25/2017 (5 Replies) - vinnie97
View latest post Frank Waanders & Maglev - Trazzard [OUT NOW] (0 Replies) - KrisA
View latest post Element Six - Together [OUT NOW] (0 Replies) - KrisA
View latest post 2017 album Release schedule (51 Replies) - Conjure
View latest post RUNAGROUND – Can’t Afford It [OUT NOW] (0 Replies) - KrisA
View latest post Moving to mixcloud (3 Replies) - d4yw41k3r
View latest post Shiloh - March 2007 Floppy Discs (2007-03-01) (15 Replies) - nuraH
View latest post 8TracK - New Side Project (Rick Tedesco & Mariion Christiian (0 Replies) - Rick Tedesco
View latest post Vanrip - Find Your Love [OUT TOMORROW] (0 Replies) - KrisA
View latest post Alae Khaldi - Voyage [OUT TOMORROW] (0 Replies) - KrisA
View latest post No Way Back feat. Sophia Black - Minute [OUT NOW] (0 Replies) - KrisA
View latest post Axis - Echoes / Over You [OUT NOW] (0 Replies) - KrisA
View latest post Searching for a tune - Influenza ft Misfilter - Want It All (2 Replies) - chalooby
View latest post Surreal's official 'Awesome tunes' thread (223 Replies) - SurrealBreaks

Today on Proton
[1 PM EST]VS with SoundSystem

Merchandise
hybridized.org Merchandise!
Get cool hybridized.org shirts, hoodies, hats, and more!

Powered by Catalyst Perl Web Framework

hybridized.org is © 2003-2006 by Andy Grundman.
All music is copyrighted by their respective artists. We believe all sets may be publicly distributed, however if you'd like your set removed, please contact us.
Theme by aallixSilver © 2002 aallix.com. All rights reserved. Logo thanks to Martin Wharton.
Privacy Policy | Site Admin