Home :: Artists :: About :: FAQ :: Forums :: Links :: Shop :: Contact
Home
Artists
  Alex Hall
  Andrew Kelly
  Benz & MD
  Burufunk
  Deepsky
  Digital Witchcraft
  Grayarea
  Hybrid
  James Warren
  Jason Dunne
  KiloWatts
  Micah
  Nick Lewis
  Noel Sanger
  NuBreed
  Shiloh
  Stefan Weise
  Trafik
  V-Sag
  Way Out West
Subscriptions
Mailing Lists
About
FAQ
Forums
Links
Shop
Pictures
Contact

Search

Get Notified
Enter your email and we'll notify you when new sets are added!


Subscribers,
log in now.

More info...

Hybridized on Twitter hybridized.org XML RSS Feeds Hybridized RSS

Best viewed with
Get Firefox!
Artists > Jason Dunne
Jason Dunne - A Mid Summer Night's Groove

Date: 2005-06-01
Venue:
Source: Encoded by Jason Dunne
Info:
PERFORMER "Jason Dunne"
TITLE "A Midsummer Night's Groove"
FILE "Jason Dunne - A Mid Summer Night's Groove (2005-06-01).mp3" MP3
TRACK 01 AUDIO
TITLE "Blade Runner Blues/Main Titles"
PERFORMER "Vangelis"
INDEX 01 00:00:00
TRACK 02 AUDIO
TITLE "Fingerpaint [Proton Music]"
PERFORMER "Digital Witchcraft"
INDEX 01 00:49:00
TRACK 03 AUDIO
TITLE "Electric Blue"
PERFORMER "Tanner Ross"
INDEX 01 10:08:00
TRACK 04 AUDIO
TITLE "Unknown"
PERFORMER "Unknown"
INDEX 01 19:13:00
TRACK 05 AUDIO
TITLE "Show Me Love (R3volve Vs Tanner Love You Long Time Mix)"
PERFORMER "Wideband Network"
INDEX 01 26:13:00
TRACK 06 AUDIO
TITLE "Breakin' - Redanka Mix"
PERFORMER "The Music"
INDEX 01 33:50:00
TRACK 07 AUDIO
TITLE "Solace - Orig/Benz & MD Mix"
PERFORMER "Lustral"
INDEX 01 40:30:00
TRACK 08 AUDIO
TITLE "All Those Things [Baroque Records]"
PERFORMER "Shiloh Vs. LP"
INDEX 01 49:05:00
TRACK 09 AUDIO
TITLE "Beautiful - Noel Sanger Remix"
PERFORMER "Seroya (Featuring Dauby)"
INDEX 01 57:45:00
TRACK 10 AUDIO
TITLE "My Prayer (Probspot Remix)"
PERFORMER "Noel Sanger"
INDEX 01 67:56:00
TRACK 11 AUDIO
TITLE "Memories Of Green - Blade Runner Soundtrack"
PERFORMER "Vangelis"
INDEX 01 75:00:00
Download this cue sheet

This area is a Wiki which means anyone may edit the cue sheet for this file. Thanks for contributing! All activity is logged so vandalizing the site serves no purpose.

When modifying cue sheets, please adhere to the cue sheet standard.

Revision history


Your username:
Comment about your changes:
Image verification:


Latest Posts
View latest post Roll Call - who is still active here? (18 Replies) - ThePhoenix
View latest post 2014 album Release schedule (278 Replies) - Conjure
View latest post c-Row's Monthly Mashup (64 Replies) - c-Row
View latest post Audiotox & Watson - Electric Shrimp (incl. Luke Porter Remix) (0 Replies) - LukeyP
View latest post Randy Squalor - Rinsing Sounds Vol 48 - Adventures Of The Randy Merman Mix (15 Replies) - Conjure
View latest post Jody Wisternoff - July 2014 Intensified (2014-07-07) (11 Replies) - chalooby
View latest post Jody Wisternoff - March 2014 Way Out There (2014-03-18) (2 Replies) - Mommar
View latest post Jody Wisternoff - Promo Mix for InProgress (Vinyl) (2014-03-28) (0 Replies) - vinnie97
View latest post Nick Warren - Delta Sessions (Miami Special) (2014-03-19) (0 Replies) - vinnie97
View latest post Jody Wisternoff - April 2014 Intensified (2014-04-07) (0 Replies) - vinnie97
View latest post Jody Wisternoff - May 2014 Intensified (2014-05-05) (0 Replies) - vinnie97
View latest post Jody Wisternoff - May 2014 Way Out There (2014-05-20) (0 Replies) - vinnie97
View latest post Jody Wisternoff - Just Add Sunshine Guestmix (2014-05-29) (0 Replies) - vinnie97
View latest post Nick Warren - Delta Sessions (2014-05-21) (0 Replies) - vinnie97
View latest post Jody Wisternoff - June 2014 Intensified (2014-06-02) (0 Replies) - vinnie97

Today on Proton
[ONDEMAND]The Download with DJ Foxx

Merchandise
hybridized.org Merchandise!
Get cool hybridized.org shirts, hoodies, hats, and more!

Powered by Catalyst Perl Web Framework

hybridized.org is © 2003-2006 by Andy Grundman.
All music is copyrighted by their respective artists. We believe all sets may be publicly distributed, however if you'd like your set removed, please contact us.
Theme by aallixSilver © 2002 aallix.com. All rights reserved. Logo thanks to Martin Wharton.
Privacy Policy | Site Admin