Home :: Artists :: About :: FAQ :: Forums :: Links :: Shop :: Contact
Home
Artists
  Alex Hall
  Andrew Kelly
  Benz & MD
  Burufunk
  Deepsky
  Digital Witchcraft
  Grayarea
  Hybrid
  James Warren
  Jason Dunne
  KiloWatts
  Micah
  Nick Lewis
  Noel Sanger
  NuBreed
  Shiloh
  Stefan Weise
  Trafik
  V-Sag
  Way Out West
Subscriptions
Mailing Lists
About
FAQ
Forums
Links
Shop
Pictures
Contact

Search

Get Notified
Enter your email and we'll notify you when new sets are added!


Subscribers,
log in now.

More info...

Hybridized on Twitter hybridized.org XML RSS Feeds Hybridized RSS

Best viewed with
Get Firefox!
Artists > Digital Witchcraft
Digital Witchcraft - Proton Radio Mix

Date: 2003-07-30
Venue: Proton Radio
Source: Proton Radio
Info:
PERFORMER "Digital Witchcraft"
TITLE "Proton Radio Mix (2003-07-30)"
FILE "Digital Witchcraft - Proton Radio Mix (2003-07-30).mp3" MP3
  TRACK 01 AUDIO
    PERFORMER "Digital Witchcraft"
    TITLE "Intro (Waking Life sample)"
    INDEX 01 00:00:00
  TRACK 02 AUDIO
    PERFORMER "Peter Benisch"
    TITLE "Love Theme"
    INDEX 01 01:00:00
  TRACK 03 AUDIO
    PERFORMER "Icehouse"
    TITLE "Don't Believe Anymore (Ivan Gough and Colin Snape Remix)"
    INDEX 01 07:42:00
  TRACK 04 AUDIO
    PERFORMER "Peter Benisch"
    TITLE "Skymning"
    INDEX 01 16:20:00
  TRACK 05 AUDIO
    PERFORMER "Digital Witchcraft"
    TITLE "Snowday"
    INDEX 01 21:18:00
  TRACK 06 AUDIO
    PERFORMER "Digital Witchcraft"
    TITLE "Kaylee's Blanket"
    INDEX 01 28:40:00
  TRACK 07 AUDIO
    PERFORMER "Jiva featuring Stephanie Vezina"
    TITLE "My Dream"
    INDEX 01 35:05:00
  TRACK 08 AUDIO
    PERFORMER "Sultan"
    TITLE "Isabella"
    INDEX 01 43:26:00
  TRACK 09 AUDIO
    PERFORMER "Digital Witchcraft"
    TITLE "Brindavan"
    INDEX 01 51:04:00
  TRACK 10 AUDIO
    PERFORMER "Jono Fernandez"
    TITLE "Colours of Conscience (Fretwell Mix)"
    INDEX 01 60:04:00
  TRACK 11 AUDIO
    PERFORMER "21st Century Fux"
    TITLE "Sunspirit (Luke Chable Mix)"
    INDEX 01 68:06:00
  TRACK 12 AUDIO
    PERFORMER "Blackwatch presents Professor Okku"
    TITLE "Word Unspoken (Luke Chable Mix)"
    INDEX 01 76:15:00
  TRACK 13 AUDIO
    PERFORMER "Sultan and Tone Depth ft. Stephanie Vezina"
    TITLE "Oken (Jiva's Inner Life Mix)"
    INDEX 01 83:18:00
  TRACK 14 AUDIO
    PERFORMER "Planet Funk"
    TITLE "Inside all the People (Harvey's Sleepy Ibiza Mix)"
    INDEX 01 91:56:00
Download this cue sheet

This area is a Wiki which means anyone may edit the cue sheet for this file. Thanks for contributing! All activity is logged so vandalizing the site serves no purpose.

When modifying cue sheets, please adhere to the cue sheet standard.

Revision history


Your username:
Comment about your changes:
Image verification:


Latest Posts
View latest post 2017 album Release schedule (149 Replies) - face
View latest post Attic Showcase, Live at Big Fun (24th September, 2017) (0 Replies) - brendanClay
View latest post General Hybrid Discussion (Was Hybrid Album Update) (1362 Replies) - Marksl8r
View latest post Wunderk1nd - Sunstroke 2017 (0 Replies) - kindergarten
View latest post MPL - Ruhnsong22-Sound Design (2013-04-06) (18 Replies) - maxtek
View latest post Mike Nixon @ The Old Abbey Tap House (0 Replies) - PosterBoy
View latest post GOGO 070: Sir LSG feat. Carla Prather – Let It Be – out now (0 Replies) - GOGO
View latest post Brendan Clay - Live at S*A*S*H (23rd July, 2017) (0 Replies) - brendanClay
View latest post Captivating Content July 2017 (0 Replies) - PosterBoy
View latest post Wunderk1nd - A Tribute To ... James Holden (0 Replies) - kindergarten
View latest post Brendan Clay - Live at Foxlife (10th June, 2017) (0 Replies) - brendanClay
View latest post Brendan Clay & Andrew Fazzolari - Live at S*A*S*H, Sydney (7th May, 2017) (0 Replies) - brendanClay
View latest post A Tribute To ... Robert Miles (3 Replies) - brendanClay
View latest post melodic bomby house set (2 Replies) - Mommar
View latest post Looking for podcasts, mix subscriptions, etc.. recommendations (2 Replies) - Conjure

Merchandise
hybridized.org Merchandise!
Get cool hybridized.org shirts, hoodies, hats, and more!

Powered by Catalyst Perl Web Framework

hybridized.org is © 2003-2006 by Andy Grundman.
All music is copyrighted by their respective artists. We believe all sets may be publicly distributed, however if you'd like your set removed, please contact us.
Theme by aallixSilver © 2002 aallix.com. All rights reserved. Logo thanks to Martin Wharton.
Privacy Policy | Site Admin