Home :: Artists :: About :: FAQ :: Forums :: Links :: Shop :: Contact
Home
Artists
  Alex Hall
  Andrew Kelly
  Benz & MD
  Burufunk
  Deepsky
  Digital Witchcraft
  Grayarea
  Hybrid
  James Warren
  Jason Dunne
  KiloWatts
  Micah
  Nick Lewis
  Noel Sanger
  NuBreed
  Shiloh
  Stefan Weise
  Trafik
  V-Sag
  Way Out West
Subscriptions
Mailing Lists
About
FAQ
Forums
Links
Shop
Pictures
Contact

Search

Get Notified
Enter your email and we'll notify you when new sets are added!


Subscribers,
log in now.

More info...

Hybridized on Twitter hybridized.org XML RSS Feeds Hybridized RSS

Best viewed with
Get Firefox!
Artists > James Warren
James Warren - Visceral 013

Date: 2012-01-10
Venue: Visceral, Proton Radio
Source: Encoded by James.
Info:
PERFORMER "James Warren"
TITLE "Visceral 013"
FILE "James Warren - Visceral 013 (2012-01-10).mp3" MP3
  TRACK 01 AUDIO
    PERFORMER "Orion & J Shore"
    TITLE "Bittersweet Silence (Original Mix)"
    INDEX 01 00:00:00
  TRACK 02 AUDIO
    PERFORMER "East Café"
    TITLE "Flashback (Aeron Aether Remix)"
    INDEX 01 02:09:00
  TRACK 03 AUDIO
    PERFORMER "Roald Velden"
    TITLE "Purple (Original Mix)"
    INDEX 01 07:50:00
  TRACK 04 AUDIO
    PERFORMER "Kobana & Mario Hatchet"
    TITLE "Reload"
    INDEX 01 14:25:00
  TRACK 05 AUDIO
    PERFORMER "Ad Brown & Nick Stoynoff"
    TITLE "Nebulas"
    INDEX 01 20:41:00
  TRACK 06 AUDIO
    PERFORMER "Lank"
    TITLE "Needless Solution"
    INDEX 01 25:54:00
  TRACK 07 AUDIO
    PERFORMER "Bastards Of Funk & Sonic Union"
    TITLE "Glitter (inSilico Remix)"
    INDEX 01 32:02:00
  TRACK 08 AUDIO
    PERFORMER "Kenneth Thomas"
    TITLE "All Is Not Lost (Luiz B Remix)"
    INDEX 01 38:32:00
  TRACK 09 AUDIO
    PERFORMER "Cora Novoa"
    TITLE "Miami Affairs (Tigerskin's Epic Version)"
    INDEX 01 44:57:00
  TRACK 10 AUDIO
    PERFORMER "Pinkbox Special"
    TITLE "The French Don't Cry (Mango 'Prog Used To Be Special' Remix)"
    INDEX 01 51:11:00
Download this cue sheet

This area is a Wiki which means anyone may edit the cue sheet for this file. Thanks for contributing! All activity is logged so vandalizing the site serves no purpose.

When modifying cue sheets, please adhere to the cue sheet standard.

Revision history


Your username:
Comment about your changes:
Image verification:


Latest Posts
View latest post Holy crap, I made a new set.... (3 Replies) - vinnie97
View latest post Simplistic House - Summer 2016 (0 Replies) - dwoods1177
View latest post Please don't go away Hybridized (1 Replies) - plut0nash
View latest post Sasha - Late Night Tales - Scene Delete (discuss.....) (11 Replies) - plut0nash
View latest post Hi everyone (42 Replies) - diffusion
View latest post 2016 album Release schedule (101 Replies) - c-Row
View latest post Ryos feat. KARRA - Where We Are [OUT NOW] (0 Replies) - KrisA
View latest post Volt & State - Anthems [OUT NOW] (0 Replies) - KrisA
View latest post Noise Zoo - Spectre [OUT NOW] (0 Replies) - KrisA
View latest post Sean McClellan - Reflections [Soundscapes Digital] (0 Replies) - morrow
View latest post Randy Squalor - Rinsing Sounds Vol 50 - The Fat Bald Frontier (4 Replies) - Conjure
View latest post Coming Soon: Subscriptions (8 Replies) - Goldmember
View latest post APEK & Shanahan feat. Andrew Jackson - Broken Souls [OUT NOW] (0 Replies) - KrisA
View latest post Tritonal – Getaway [OUT NOW] (0 Replies) - KrisA
View latest post New Soundcloud DJ Policy (9 Replies) - chalooby

Today on Proton
[ONDEMAND]Locked Up Progressive Sounds with Jacco@Work
[2 AM EST]Krafted with Chloe Fontaine
[10 AM EST]Plastic City with Lukas Greenberg
[12 AM EST]Infusion with Rafa'EL
[1 PM EST]Lights Out with Donatello and Kastis Torrau
[2 PM EST]Transitions with John Digweed
[5 PM EST]Back Home Essentials with Ryan Davis
[6 PM EST]CitySeven Communique with Luke Brancaccio
[8 PM EST]Slideways Sessions with Tim Penner
[9 PM EST]Slam Radio with Soma Records

Merchandise
hybridized.org Merchandise!
Get cool hybridized.org shirts, hoodies, hats, and more!

Powered by Catalyst Perl Web Framework

hybridized.org is © 2003-2006 by Andy Grundman.
All music is copyrighted by their respective artists. We believe all sets may be publicly distributed, however if you'd like your set removed, please contact us.
Theme by aallixSilver © 2002 aallix.com. All rights reserved. Logo thanks to Martin Wharton.
Privacy Policy | Site Admin