Home :: Artists :: About :: FAQ :: Forums :: Links :: Shop :: Contact
Home
Artists
  Alex Hall
  Andrew Kelly
  Benz & MD
  Burufunk
  Deepsky
  Digital Witchcraft
  Grayarea
  Hybrid
  James Warren
  Jason Dunne
  KiloWatts
  Micah
  Nick Lewis
  Noel Sanger
  NuBreed
  Shiloh
  Stefan Weise
  Trafik
  V-Sag
  Way Out West
Subscriptions
Mailing Lists
About
FAQ
Forums
Links
Shop
Pictures
Contact

Search

Get Notified
Enter your email and we'll notify you when new sets are added!


Subscribers,
log in now.

More info...

Hybridized on Twitter hybridized.org XML RSS Feeds Hybridized RSS

Best viewed with
Get Firefox!
Artists > Hybrid
Hybrid - Soundsystem at Chinese Laundry (Sydney, Australia)

Date: 2011-09-24
Venue: Chinese Laundry, Sydney, Australia
Source: Encoded by Hybrid.
Info:
PERFORMER "Hybrid"
TITLE "Soundsystem at Chinese Laundry (Sydney, Australia) (2011-09-24)"
FILE "Hybrid - Soundsystem at Chinese Laundry (Sydney, Australia) (2011-09-24).mp3" MP3
  TRACK 01 AUDIO
    TITLE "Le Carrousel (Egbert Remix)"
    PERFORMER "Phil Kieran"
    INDEX 01 00:00:00
  TRACK 02 AUDIO
    TITLE "Lowlife (Original Mix)"
    PERFORMER "Sasha vs Adam Parker"
    INDEX 01 08:47:62
  TRACK 03 AUDIO
    TITLE "Timing (Kollektiv Turmstrasse Remix)"
    PERFORMER "Guy Gerber"
    INDEX 01 13:32:57
  TRACK 04 AUDIO
    TITLE "Timing (Original Mix)"
    PERFORMER "Guy Gerber"
    INDEX 01 20:17:57
  TRACK 05 AUDIO
    TITLE "Sayonara"
    PERFORMER "UNKLE"
    INDEX 01 27:25:18
  TRACK 06 AUDIO
    TITLE "Modul8 (Fiord Remix)"
    PERFORMER "Khainz"
    INDEX 01 34:13:69
  TRACK 07 AUDIO
    TITLE "Blind Side (Hybrid Soundsystem Remix)"
    PERFORMER "Hybrid"
    INDEX 01 39:13:67
  TRACK 08 AUDIO
    TITLE "Numb (Hybrid’s Kill City Sounds Mix 03)"
    PERFORMER "Hybrid"
    INDEX 01 45:43:66
  TRACK 09 AUDIO
    TITLE "Love In Traffic (Hybrid Remix)"
    PERFORMER "Satoshi Tomiie feat. Kelli Ali"
    INDEX 01 51:58:64
  TRACK 10 AUDIO
    TITLE "Flywheel vs Nude (Hybrid Re-Edit)"
    PERFORMER "Shiloh & Steve Andres vs Radiohead"
    INDEX 01 60:13:61
  TRACK 11 AUDIO
    TITLE "Deliver Me (Hush Mix)"
    PERFORMER "Tim Davison feat. Stacey Kitson"
    INDEX 01 66:58:58
  TRACK 12 AUDIO
    TITLE "Fite Nite (Nogoodnik 08 Dub Mix)"
    PERFORMER "Nogoodnik"
    INDEX 01 74:13:55
  TRACK 13 AUDIO
    TITLE "Integrator (Original Mix)"
    PERFORMER "Hedflux"
    INDEX 01 81:28:53
  TRACK 14 AUDIO
    TITLE "Bombscare (Hybrid Remix)"
    PERFORMER "2 Bad Mice"
    INDEX 01 88:14:10
  TRACK 15 AUDIO
    TITLE "Summertime Rolls (Hybrid Remix)"
    PERFORMER "Losers feat. Brian Molko"
    INDEX 01 95:45:69
  TRACK 16 AUDIO
    TITLE "Can You Hear Me (Hybrid's Kill City Sounds Dub 02)"
    PERFORMER "Hybrid"
    INDEX 01 105:00:68
  TRACK 17 AUDIO
    TITLE "Blind Side (Hybrid Soundsystem Dub)"
    PERFORMER "Hybrid"
    INDEX 01 112:04:48
  TRACK 18 AUDIO
    TITLE "Blide Side (Widescreen Eclectro Mix)"
    PERFORMER "Hybrid"
    INDEX 01 116:34:45
  TRACK 19 AUDIO
    TITLE "Fly (Hybrid Soundsystem Remix)"
    PERFORMER "Guy J & Miriam Vaga"
    INDEX 01 123:11:65
  TRACK 20 AUDIO
    TITLE "Break My Soul (Hybrid's Kill City Sounds Mix 01)"
    PERFORMER "Hybrid"
    INDEX 01 132:40:47
  TRACK 21 AUDIO
    TITLE "Paradigm House (Original Mix)"
    PERFORMER "Maetrik"
    INDEX 01 140:10:44
  TRACK 22 AUDIO
    TITLE "Dirty Panty Ho Wrestler (Original Mix)"
    PERFORMER "Lee Burridge & Steve Porter"
    INDEX 01 146:55:41
  TRACK 23 AUDIO
    TITLE "Little Peaking (Original Mix)"
    PERFORMER "Lostep"
    INDEX 01 152:34:69
  TRACK 24 AUDIO
    TITLE "Unpleasant Surprise (Popof Remix)"
    PERFORMER "James Harcourt"
    INDEX 01 160:19:65
  TRACK 25 AUDIO
    TITLE "Inside The Cave (Joey Beltram Remix)"
    PERFORMER "Tom Hades"
    INDEX 01 166:38:37
  TRACK 26 AUDIO
    TITLE "Earth Freak (Original Mix)"
    PERFORMER "SQL"
    INDEX 01 172:53:35
  TRACK 27 AUDIO
    TITLE "Strak (Original Mix)"
    PERFORMER "Egbert"
    INDEX 01 179:08:33
  TRACK 28 AUDIO
    TITLE "You Are Sleeping (PQM Meets Luke Chable Vocal Pass)"
    PERFORMER "PQM"
    INDEX 01 184:53:31
Download this cue sheet

This area is a Wiki which means anyone may edit the cue sheet for this file. Thanks for contributing! All activity is logged so vandalizing the site serves no purpose.

When modifying cue sheets, please adhere to the cue sheet standard.

Revision history


Your username:
Comment about your changes:
Image verification:


Latest Posts
View latest post Brendan Clay - Live at Crane Fridays (Sydney) with Luke Chable (2 Replies) - brendanClay
View latest post James Warren - Visceral 037 (2014-01-26) (1 Replies) - vinnie97
View latest post 2014 album Release schedule (353 Replies) - Mommar
View latest post James Warren - Visceral 038 (2014-02-23) (0 Replies) - vinnie97
View latest post James Warren - Visceral 039 (2014-03-23) (0 Replies) - vinnie97
View latest post James Warren - Visceral 040 (2014-04-27) (0 Replies) - vinnie97
View latest post Hybrid Driveclub soundtrack/Be Here Now (111 Replies) - Conjure
View latest post Hasan Mogol- 'Euridice EP' - OUT NOW [Perspectives Digital] (0 Replies) - Perspectives
View latest post Trafik - Star Gazing (2014-05-28) (6 Replies) - vinnie97
View latest post Shiloh - White Label Society 008 (2014-04-28) (3 Replies) - plut0nash
View latest post Trafik - Star Gazing (2014-03-13) (1 Replies) - vinnie97
View latest post Trafik - Star Gazing (2013-12-12) (3 Replies) - vinnie97
View latest post Trafik - Star Gazing (2014-01-09) (1 Replies) - vinnie97
View latest post Trafik - Star Gazing (2014-04-10) (0 Replies) - vinnie97
View latest post Morphosis Records Releases (0 Replies) - morphosisrecords

Today on Proton
[ONDEMAND]Mirabilis Radio with Alex Nemec
[2 PM EST]TERMINAL with Cream (PL)
[12 AM EST]Relations with Erich Von Kollar
[8 AM EST]Encore with Tim Benjamin
[12 AM EST]Subsidence Sounds with Dale Middleton
[9 AM EST]E.F.G. Sound with E.F.G.
[3 PM EST]Hear the Colours with Kobana
[12 AM EST]The Balkan Connection with Milos Miladinovic and Nicholas Van Orton
[2 PM EST]Movement with Tash
[7 PM EST]Room2Move with Anthony Yarranton

Merchandise
hybridized.org Merchandise!
Get cool hybridized.org shirts, hoodies, hats, and more!

Powered by Catalyst Perl Web Framework

hybridized.org is © 2003-2006 by Andy Grundman.
All music is copyrighted by their respective artists. We believe all sets may be publicly distributed, however if you'd like your set removed, please contact us.
Theme by aallixSilver © 2002 aallix.com. All rights reserved. Logo thanks to Martin Wharton.
Privacy Policy | Site Admin